#TITLE:You Make Me Feel;
#SUBTITLE:;
#ARTIST:Funk Project;
#TITLETRANSLIT:;
#SUBTITLETRANSLIT:;
#ARTISTTRANSLIT:;
#CREDIT:;
#BANNER:You Make Me Feel-banner.png;
#BACKGROUND:You Make Me Feel-bg.png;
#LYRICSPATH:;
#CDTITLE:;
#MUSIC:You Make Me Feel.mp3;
#MUSICLENGTH:101.389;
#OFFSET:-0.080;
#SAMPLESTART:63.945;
#SAMPLELENGTH:12.000;
#SELECTABLE:YES;
#BPMS:0.000=135.040;
#STOPS:;
#BGCHANGES:;
#FIRSTBEAT:16.000;

#LASTBEAT:228.000;

#SONGFILENAME:Songs/ERICth The 3rd/You Make Me Feel/You Make Me Feel.sm;

#HASMUSIC:1;

#HASBANNER:1;


//---------------dance-single - MANIAC----------------
#NOTES:
     dance-single:
     MANIAC:
     hard:
     5:
     0.342,0.365,0.010,0.020,0.000,240.000,1.000,2.000,0.000,0.000:


0000
0000
0000
0000
,
0000
0000
0000
0000
,
0000
0000
0000
0000
,
0000
0000
0000
0000
,
0010
1000
0100
0010
,
0100
1000
0010
0001
,
0010
1000
0100
0001
,
0010
0001
0100
0001
,
0010
0001
0100
0010
,
1000
0001
0100
0010
,
1000
0100
0010
0001
,
1000
0000
0100
0000
1000
0000
0001
1000
,
0100
0000
0001
0000
0001
0000
0100
1000
,
0100
0000
0010
0000
0001
0000
0100
1000
,
0010
0000
0001
0000
0100
0000
0010
0100
,
0010
0000
1000
0000
0001
1000
0001
1000
,
0001
0000
0100
0000
0010
0001
0100
0001
,
0000
0000
0001
0000
1000
0010
1000
0000
,
0100
0000
0010
0000
0001
0000
0100
0010
,
0000
0010
0000
0010
1000
0100
0010
0000
,
0001
0000
1000
0000
0010
1000
0001
0100
,
0000
0000
0001
0000
1000
0100
0010
0000
,
0001
0000
1000
0000
0010
0100
0010
1000
,
0000
0000
0001
0000
0100
0010
1000
0100
,
0010
0001
1000
0010
,
0100
0001
1000
0010
,
0100
0010
1000
0001
,
0100
0010
1000
0010
,
0001
0010
0100
0010
,
0100
1000
1000
0001
,
0100
0010
0001
0001
,
0010
0100
0001
1000
,
0020
0000
0000
0000
,
1000
1000
1000
1000
,
1030
0100
1000
0010
,
0100
0000
0001
0010
0001
0010
0001
0010
,
0001
0000
1000
0100
0010
0000
0001
1000
,
0000
0000
0100
0000
1000
0010
0100
0000
,
0001
0000
0100
0000
0010
1000
0000
0110
,
0000
0001
0100
1000
,
0010
0000
0100
0001
1000
0000
0100
0010
,
0000
0000
0001
0000
1000
0100
0010
0000
,
0001
0000
0100
0000
0010
1000
0001
0100
,
0000
0000
0001
0000
1000
0010
0100
0000
,
0001
0000
1000
0000
0010
1000
0010
1000
,
0000
0000
0001
0000
0010
0001
0010
0000
,
0001
0000
0100
1000
0010
0100
0001
0010
,
0000
0000
0001
0000
1000
0100
0010
0000
,
0001
0100
0010
0100
0001
1000
0001
1000
,
0000
0000
0001
0000
1000
0010
1000
0000
,
0100
0000
0010
0000
0001
1000
0100
0010
,
0000
0000
0001
0000
1000
0000
0010
0100
,
0001
0000
1000
0000
0001
0000
1000
0010
,
1000
0000
0001
0000
0100
0000
0010
1000
,
0100
0000
0010
0000
0001
0000
0100
0001
,
0020
0000
0000
0000
,
0000
0000
0000
0000
,
0030
0000
0000
0000
,;

//---------------dance-single - ANOTHER----------------
#NOTES:
     dance-single:
     ANOTHER:
     medium:
     4:
     0.197,0.280,0.099,0.020,0.000,128.000,10.000,2.000,0.000,0.000:


0000
0000
0000
0000
,
0000
0000
0000
0000
,
0000
0000
0000
0000
,
0000
0000
0000
0000
,
1010
0100
0010
0100
,
0001
0100
0010
0000
,
0011
0100
1000
0010
,
0100
0010
0100
0000
,
0011
0100
1000
0001
,
0010
0010
0100
0000
,
1100
0100
0010
0100
,
0010
0001
1000
0000
,
0010
0000
0010
0000
,
0100
0000
0100
0000
,
0010
0000
0010
0000
,
0100
0000
0100
0000
,
1000
0100
0001
0100
,
1000
0000
0000
0000
,
0001
0100
1000
0100
,
0001
0000
0000
0000
,
1000
0010
0001
0010
,
1000
0000
0000
0000
,
0001
0010
1000
0010
,
0001
0000
0000
0000
,
1010
0100
0100
0001
,
0000
0001
0000
0001
,
0011
0100
0010
1000
,
0000
1000
0000
1000
,
1100
0000
0001
0000
,
0100
0000
0101
0101
,
0101
0100
0010
1000
,
0100
0010
0002
0000
,
0000
0000
0000
0000
,
0000
0000
0000
0000
,
0000
0000
0000
0000
,
0000
0000
0000
0000
,
1003
0100
0010
0100
,
0010
0000
0000
0000
,
0001
0010
0100
0010
,
0100
0000
0000
0000
,
1000
0010
0100
0010
,
0100
0000
0000
0000
,
0001
0010
0100
0010
,
0100
0000
0000
0000
,
0001
0100
0010
0100
,
0010
0000
0000
0000
,
1000
0100
0010
0100
,
1000
0000
0000
0000
,
0001
0100
0100
0010
,
0010
0000
0000
0000
,
1000
0100
0100
0010
,
0010
0000
0000
0001
,
1000
0000
0000
1000
,
0001
0000
0000
0001
,
1000
0000
0000
1000
,
0002
0000
0000
0000
,
0000
0000
0000
0003
,;

//---------------dance-single - BASIC----------------
#NOTES:
     dance-single:
     BASIC:
     easy:
     1:
     0.092,0.167,0.148,0.030,0.000,47.000,15.000,3.000,0.000,0.000:


0000
0000
0000
0000
,
0000
0000
0000
0000
,
0000
0000
0000
0000
,
0000
0000
0000
0000
,
0010
0000
0000
0000
,
0000
0000
0000
0000
,
0010
0000
0000
0000
,
0000
0000
0000
0000
,
0100
0000
0000
0000
,
0000
0000
0000
0000
,
0100
0000
0000
0000
,
0000
0000
0000
0100
,
0110
0000
0000
0000
,
0000
0000
0000
0010
,
0110
0000
0000
0000
,
0000
0000
0000
0000
,
1001
0000
1000
0000
,
1000
0000
0000
0000
,
1001
0000
0001
0000
,
0001
0000
0000
0000
,
1001
0000
1000
0000
,
0100
0000
0000
0000
,
1001
0000
0001
0000
,
0100
0000
0000
0000
,
0010
0000
0000
0000
,
0010
0000
0000
0000
,
0100
0000
0000
0000
,
0100
0000
0000
0000
,
1000
0000
0000
0000
,
1000
0000
0000
0000
,
0001
0000
0000
0000
,
0001
0000
0000
0000
,
0020
0000
0000
0000
,
0000
0000
0000
0000
,
0000
0000
0000
0000
,
0000
0000
0000
0030
,
0110
0000
0000
0000
,
0110
0000
0000
0000
,
1010
0000
0000
0000
,
1010
0000
0000
0000
,
0110
0000
0000
0000
,
0110
0000
0000
0000
,
0011
0000
0000
0000
,
0011
0000
0000
0000
,
1000
0000
0000
0000
,
0000
0000
0000
0000
,
1000
0000
0000
0000
,
0000
0000
0000
0000
,
0001
0000
0000
0000
,
0001
0000
0000
0000
,
0001
0000
0000
0000
,
1000
0000
0000
0000
,
0010
0000
0000
0000
,
0010
0000
0000
0000
,
0010
0000
0000
0000
,
0220
0000
0000
0000
,
0000
0000
0330
0000
,;
